The Pretty Reckless Discography Torrent

/ Comments off

The Pretty Reckless are an American rock band from New York City, formed in 2009.The band consists of Taylor Momsen (lead vocals, rhythm guitar), Ben Phillips (lead guitar, backing vocals), Mark Damon (bass) and Jamie Perkins (drums). Urs classic console compressors. The band released their debut studio album, Light Me Up, in August 2010.The album spawned three moderately successful singles, most notably 'Make Me Wanna Die'. Search Torrents Browse Torrents Recent Torrents Top 100 All Music Audio books Sound clips FLAC Other Movies Movies DVDR Music videos Movie clips TV shows Handheld HD - Movies HD - TV shows 3D Other Windows Mac UNIX Handheld IOS (iPad/iPhone) Android Other OS PC Mac PSx XBOX360 Wii Handheld IOS (iPad/iPhone) Android Other Movies Movies.

The Pretty Reckless / iTunes Discography : 2010-2016Жанр: Alternative / Rock
Страна: USA
Год издания: 2010-2016
Издатель (лейбл): Interscope Records / Goin' Down, Inc.
Аудио кодек: AAC
Тип рипа: tracks
Битрейт аудио: 256 kbps
Продолжительность: 04:32:13
Источник: iTunes Store
Вшитые тексты: отсутствуют
Наличие сканов в содержимом раздачи: Digital Booklet (3)
AlbumsГод издания: 2010
Продолжительность: 00:41:24Discography
Треклист:

Looking for a torrent for all of it. Discography; 2014: listen. I bought my girlfriend madvilliany on vinyl for christmas as well as the new pretty reckless. The Story of Bo Diddley 02. Bury My Body 03. I've Been Around 05. I'm in Love Again 06. The Girl Can't Help It 07. I'm Mad Again 08. The Pretty Reckless discography and songs: Music profile for The Pretty Reckless, formed 2009. Genres: Hard Rock, Post-Grunge, Pop Rock. Albums include Light Me Up, Going to Hell, and Who You Selling For.

01 My Medicine (Single Version)
02 Since You're Gone
03 Make Me Wanna Die
04 Light Me Up
05 Just Tonight
06 Miss Nothing
07 Goin' Down
08 Nothing Left to Lose
09 Factory Girl
10 You
11 Far from Never (Demo)
12 Everybody Wants Something from Me (Demo)Качество: WEB-DL
Продолжительность: 00:03:38
Формат: MPEG-4 (M4V)
Видео: H.264, 640 x 360 Px, 29.970 FPS, 1 767 Kbps
Аудио: Английский (AAC Stereo, 256 Kbps, 44,1 kHz)
General
Complete name : C:UsersНаталияDesktop13 Make Me Wanna Die.m4v
Format : MPEG-4
Codec ID : M4V
File size : 45.8 MiB
Duration : 3mn 37s
Overall bit rate : 1 767 Kbps
Movie name : Make Me Wanna Die
Album : Light Me Up
Album/Performer : The Pretty Reckless
Track name/Position : 13
Performer : The Pretty Reckless
Performer/Sorted by : Pretty Reckless
Genre : Alternative
ContentType : Music Video
Recorded date : UTC 2003-04-28 07:00:00
Encoded date : UTC 2010-08-09 22:50:10
Tagged date : UTC 2010-08-09 22:55:48
Writing library : Apple QuickTime
Copyright : ℗ 2010 Interscope Records
Service name : iTunes
Cover : Yes
Rating : None
AppleStoreAccount : [email protected]
AppleStoreCatalogID : 386679209
AlbumTitleID : 363203352
PlayListID : 386674749
GenreID : 1614
AppleStoreCountry : United Kingdom
AppleStoreAccountType : iTunes
PurchaseDate : 2010-08-30 01:42:12
Vendor : Universal:isrc:USUV71000952
iTunMOVI : <?xml version='1.0' encoding='UTF-8'?> / <!DOCTYPE plist PUBLIC '-//Apple//DTD PLIST 1.0//EN' 'http://www.apple.com/DTDs/PropertyList-1.0.dtd'> / <plist version='1.0'> / <dict> / <key>asset-info</key> / <dict> / <key>file-size</key> / <integer>48033065</integer> / <key>flavor</key> / <string>6:640x480LC-256</string> / <key>screen-format</key> / <string>widescreen</string> / </dict> / </dict> / </plist>
Video
ID : 1
Format : AVC
Format/Info : Advanced Video Codec
Format profile : [email protected]
Format settings, CABAC : No
Format settings, ReFrames : 1 frame
Codec ID : avc1
Codec ID/Info : Advanced Video Coding
Duration : 3mn 37s
Bit rate : 1 474 Kbps
Width : 640 pixels
Height : 360 pixels
Display aspect ratio : 16:9
Frame rate mode : Constant
Frame rate : 29.970 fps
Color space : YUV
Chroma subsampling : 4:2:0
Bit depth : 8 bits
Scan type : Progressive
Bits/(Pixel*Frame) : 0.213
Stream size : 38.2 MiB (83%)
Language : English
Encoded date : UTC 2010-08-09 22:55:44
Tagged date : UTC 2010-08-09 22:55:48
Color primaries : BT.601 NTSC
Transfer characteristics : BT.709
Matrix coefficients : BT.601
Audio
ID : 2
Format : AAC
Format/Info : Advanced Audio Codec
Format profile : LC
Codec ID : 40
Duration : 3mn 37s
Source duration : 3mn 37s
Bit rate mode : Constant
Bit rate : 256 Kbps
Channel count : 2 channels
Channel positions : Front: L R
Sampling rate : 44.1 KHz
Compression mode : Lossy
Stream size : 6.45 MiB (14%)
Source stream size : 6.45 MiB (14%)
Language : English
Encoded date : UTC 2010-08-09 22:55:44
Tagged date : UTC 2010-08-09 22:55:48
Other
ID : 3
Type : Time code
Format : QuickTime TC
Duration : 3mn 37s
Time code of first frame : 00:00:00:00
Time code settings : Striped
Language : English
Encoded date : UTC 2010-08-09 22:55:48
Tagged date : UTC 2010-08-09 22:55:48
Качество: WEB-DL
Продолжительность: 00:03:21
Формат:The pretty reckless discography torrent yifyDiscography MPEG-4 (M4V)
Видео: H.264, 640 x 360 Px, 29.970 FPS, 1 798 Kbps
Аудио: Английский (AAC Stereo, 256 Kbps, 44,1 kHz)
General
Complete name : C:UsersНаталияDesktop14 Miss Nothing.m4v
Format : MPEG-4
Codec ID : M4V
File size : 43.2 MiB
Duration : 3mn 21s
Overall bit rate : 1 798 Kbps
Movie name : Miss Nothing
Album : Light Me Up
Album/Performer : The Pretty Reckless
Track name/Position : 14
Performer : The Pretty Reckless
Performer/Sorted by : Pretty Reckless
Genre : Alternative
ContentType : Music Video
Recorded date : UTC 2003-04-28 07:00:00
Encoded date : UTC 2010-08-09 22:49:35
Tagged date : UTC 2010-08-09 22:58:08
Writing library : Apple QuickTime
Copyright : ℗ 2010 Interscope Records
Service name : iTunes
Cover : Yes
Rating : None
AppleStoreAccount : [email protected]
AppleStoreCatalogID : 386679227
AlbumTitleID : 363203352
PlayListID : 386674749
GenreID : 1620
AppleStoreCountry : United Kingdom
AppleStoreAccountType : iTunes
PurchaseDate : 2010-08-30 01:42:12
Vendor : Universal:isrc:USUV71001377
iTunMOVI : <?xml version='1.0' encoding='UTF-8'?> / <!DOCTYPE plist PUBLIC '-//Apple//DTD PLIST 1.0//EN' 'http://www.apple.com/DTDs/PropertyList-1.0.dtd'> / <plist version='1.0'> / <dict> / <key>asset-info</key> / <dict> / <key>file-size</key> / <integer>45263458</integer> / <key>flavor</key> / <string>6:640x480LC-256</string> / <key>screen-format</key> / <string>widescreen</string> / </dict> / </dict> / </plist>
Video
ID : 1
Format : AVC
Format/Info : Advanced Video Codec
Format profile : [email protected]
Format settings, CABAC : No
Format settings, ReFrames : 1 frame
Codec ID : avc1
Codec ID/Info : Advanced Video Coding
Duration : 3mn 21s
Bit rate : 1 510 Kbps
Width : 640 pixels
Height : 360 pixels
Display aspect ratio : 16:9
Frame rate mode : Constant
Frame rate : 29.970 fps
Color space : YUV
Chroma subsampling : 4:2:0
Bit depth : 8 bits
Scan type : Progressive
Bits/(Pixel*Frame) : 0.219
Stream size : 36.3 MiB (84%)
Language : English
Encoded date : UTC 2010-08-09 22:58:04
Tagged date : UTC 2010-08-09 22:58:08
Color primaries : BT.601 NTSC
Transfer characteristics : BT.709
Matrix coefficients : BT.601
Audio
ID : 2
Format : AAC
Format/Info : Advanced Audio Codec
Format profile : LC
Codec ID : 40
Duration : 3mn 21s
Source duration : 3mn 21s
Bit rate mode : Constant
Bit rate : 240 Kbps
Nominal bit rate : 256 Kbps
Channel count : 2 channels
Channel positions : Front: L R
Sampling rate : 44.1 KHz
Compression mode : Lossy
Stream size : 5.77 MiB (13%)
Source stream size : 5.77 MiB (13%)
Language : English
Encoded date : UTC 2010-08-09 22:58:04
Tagged date : UTC 2010-08-09 22:58:08
Other
ID : 3
Type : Time code
Format : QuickTime TC
Duration : 3mn 21s
Time code of first frame : 00:00:00:00
Time code settings : Striped
Language : English
Encoded date : UTC 2010-08-09 22:58:08
Tagged date : UTC 2010-08-09 22:58:08
Год издания: 2011
Продолжительность: 00:37:13
Треклист:
01 My Medicine
02 Since You're Gone
03 Make Me Wanna Die
04 Light Me Up
05 Zombie
06 Just Tonight
07 Miss Nothing
08 Goin' Down
09 Nothing Left to Lose
10 You
11 Factory Girl
Год издания: 2014
Продолжительность: 00:59:37
Треклист:
01 Follow Me Down
02 Going to Hell
03 Heaven Knows
04 House on a Hill
05 Sweet Things
06 Dear Sister
07 Absolution
08 Blame Me
09 Burn
10 Why'd You Bring a Shotgun to the Party
11 F****d Up World
12 Waiting for a Friend
13 Kill Me
14 Going to Hell [Live Acoustic]
15 Sweet Things [Acoustic]
16 Only You
Год издания: 2016
Продолжительность: 00:51:46
Треклист:
01 The Walls Are Closing In / Hangman
02 Oh My God
03 Take Me Down
04 Prisoner
05 Wild City
06 Back to the River (feat. Warren Haynes)
07 Who You Selling For
08 Bedroom Window
09 Living in the Storm
10 Already Dead
11 The Devil's Back
12 Mad Love
EPsГод издания: 2010
Продолжительность: 00:06:47
Треклист:
01 Miss Nothing
02 Make Me Wanna Die (Acoustic Version)Качество: WEB-DL
Продолжительность: 00:03:21
Формат: MPEG-4 (M4V)
Видео: H.264, 640 x 360 Px, 29.970 FPS, 1 510 Kbps
Аудио: Английский (AAC Stereo, 256 Kbps, 44,1 kHz)
General
Complete name : C:UsersНаталияDesktop03 Miss Nothing.m4v
Format : MPEG-4
Codec ID : M4V
File size : 43.2 MiB
Duration : 3mn 21s
Overall bit rate : 1 798 Kbps
Movie name : Miss Nothing
Album : Miss Nothing (UK Version) - EP
Album/Performer : The Pretty Reckless
Part/Position : 1
Part/Total : 1
Track name/Position : 3
Track name/Total : 3
Performer : The Pretty Reckless
Performer/Sorted by : Pretty Reckless
Genre : Alternative
ContentType : Music Video
Recorded date : 2010
Encoded date : UTC 2010-08-09 22:49:35
Tagged date : UTC 2010-08-09 22:58:08
Writing library : Apple QuickTime
Copyright : ℗ 2010 Interscope Records
Service name : iTunes
Cover : Yes
Rating : None
AppleStoreAccount : [email protected]
AppleStoreCatalogID : 386679227
AlbumTitleID : 363203352
PlayListID : 386674749
GenreID : 1620
AppleStoreCountry : United Kingdom
AppleStoreAccountType : iTunes
PurchaseDate : 2010-08-30 01:42:12
Vendor : Universal:isrc:USUV71001377
iTunMOVI : <?xml version='1.0' encoding='UTF-8'?> / <!DOCTYPE plist PUBLIC '-//Apple//DTD PLIST 1.0//EN' 'http://www.apple.com/DTDs/PropertyList-1.0.dtd'> / <plist version='1.0'> / <dict> / <key>asset-info</key> / <dict> / <key>file-size</key> / <integer>45263458</integer> / <key>flavor</key> / <string>6:640x480LC-256</string> / <key>screen-format</key> / <string>widescreen</string> / </dict> / </dict> / </plist>
Video
ID : 1
Format : AVC
Format/Info : Advanced Video Codec
Format profile : [email protected]
Format settings, CABAC : No
Format settings, ReFrames : 1 frame
Codec ID : avc1
Codec ID/Info : Advanced Video Coding
Duration : 3mn 21s
Bit rate : 1 510 Kbps
Width : 640 pixels
Height : 360 pixels
Display aspect ratio : 16:9
Frame rate mode : Constant
Frame rate : 29.970 fps
Color space : YUV
Chroma subsampling : 4:2:0
Bit depth : 8 bits
Scan type : Progressive
Bits/(Pixel*Frame) : 0.219
Stream size : 36.3 MiB (84%)
Language : English
Encoded date : UTC 2010-08-09 22:58:04
Tagged date : UTC 2010-08-09 22:58:08
Color primaries : BT.601 NTSC
Transfer characteristics : BT.709
Matrix coefficients : BT.601
Audio
ID : 2
Format : AAC
Format/Info : Advanced Audio Codec
Format profile : LC
Codec ID : 40
Duration : 3mn 21s
Source duration : 3mn 21s
Bit rate mode : Constant
Bit rate : 240 Kbps
Nominal bit rate : 256 Kbps
Channel count : 2 channels
Channel positions : Front: L R
Sampling rate : 44.1 KHz
Compression mode : Lossy
Stream size : 5.77 MiB (13%)
Source stream size : 5.77 MiB (13%)
Language : English
Encoded date : UTC 2010-08-09 22:58:04
Tagged date : UTC 2010-08-09 22:58:08
Other
ID : 3
Type : Time code
Format : QuickTime TC
Duration : 3mn 21s
Time code of first frame : 00:00:00:00
Time code settings : Striped
Language : English
Encoded date : UTC 2010-08-09 22:58:08
Tagged date : UTC 2010-08-09 22:58:08
Год издания: 2010
Продолжительность: 00:05:52
Треклист:
01 Just Tonight

The Pretty Reckless Discography Torrent Kickass


02 Just Tonight (Acoustic Version)Качество: WEB-DL
Продолжительность: 00:03:03

The Pretty Reckless Discography Torrent Free


Формат: MPEG-4 (M4V)
Видео: H.264, 640 x 360 Px, 29.970 FPS, 1 801 Kbps
Аудио: Английский (AAC Stereo, 256 Kbps, 44,1 kHz)
General
Complete name : C:UsersНаталияDesktop03 Just Tonight.m4v
Format : MPEG-4
Codec ID : M4V
File size : 39.4 MiB
Duration : 3mn 3s
Overall bit rate : 1 801 Kbps
Movie name : Just Tonight
Album : Just Tonight - EP
Album/Performer : The Pretty Reckless
Part/Position : 1
Part/Total : 1
Track name/Position : 3
Performer : The Pretty Reckless
Performer/Sorted by : Pretty Reckless
Genre : Alternative
ContentType : Music Video
Recorded date : UTC 2003-04-28 07:00:00
Encoded date : UTC 2010-12-10 15:10:21
Tagged date : UTC 2010-12-10 15:14:35
Writing library : Apple QuickTime
Copyright : ℗ 2010 Interscope Records
Service name : iTunes
Cover : Yes
Rating : None
AppleStoreAccount : [email protected]
AppleStoreCatalogID : 409345801
AlbumTitleID : 3538950
PlayListID : 409345710
GenreID : 1620
AppleStoreCountry : Ireland
AppleStoreAccountType : iTunes
PurchaseDate : 2010-12-25 11:25:04
Vendor : Universal:isrc:USUV71002414
iTunMOVI : <?xml version='1.0' encoding='UTF-8'?> / <!DOCTYPE plist PUBLIC '-//Apple//DTD PLIST 1.0//EN' 'http://www.apple.com/DTDs/PropertyList-1.0.dtd'> / <plist version='1.0'> / <dict> / <key>asset-info</key> / <dict> / <key>file-size</key> / <integer>41284058</integer> / <key>flavor</key> / <string>6:640x480LC-256</string> / <key>screen-format</key> / <string>widescreen</string> / </dict> / </dict> / </plist>
Video
ID : 1
Format : AVC
Format/Info : Advanced Video Codec
Format profile : [email protected]
Format settings, CABAC : No
Format settings, ReFrames : 1 frame
Codec ID : avc1
Codec ID/Info : Advanced Video Coding
Duration : 3mn 3s
Bit rate : 1 503 Kbps
Width : 640 pixels
Height : 359 pixels
Original height : 360 pixels
Display aspect ratio : 16:9
Original display aspect ratio : 16:9
Frame rate mode : Constant
Frame rate : 29.970 fps
Color space : YUV
Chroma subsampling : 4:2:0
Bit depth : 8 bits
Scan type : Progressive
Bits/(Pixel*Frame) : 0.218
Stream size : 32.9 MiB (83%)
Language : English
Encoded date : UTC 2010-12-10 15:14:32
Tagged date : UTC 2010-12-10 15:14:35
Color primaries : BT.601 NTSC
Transfer characteristics : BT.709
Matrix coefficients : BT.601
Audio
ID : 2
Format : AAC
Format/Info : Advanced Audio Codec
Format profile : LC
Codec ID : 40
Duration : 3mn 3s
Source duration : 3mn 3s
Bit rate mode : Constant
Bit rate : 256 Kbps
Channel count : 2 channels
Channel positions : Front: L R
Sampling rate : 44.1 KHz
Compression mode : Lossy
Stream size : 5.38 MiB (14%)
Source stream size : 5.38 MiB (14%)
Language : English
Encoded date : UTC 2010-12-10 15:14:32
Tagged date : UTC 2010-12-10 15:14:35
Other
ID : 3
Type : Time code
Format : QuickTime TC
Duration : 3mn 3s
Time code of first frame : 00:00:00:00
Time code settings : Striped
Language : English
Encoded date : UTC 2010-12-10 15:14:35
Tagged date : UTC 2010-12-10 15:14:35
Год издания: 2012
Продолжительность: 00:19:56
Треклист:
01 Make Me Wanna Die (Live)
02 Hit Me Like a Man
03 Under the Water
04 Since You're Gone (Live)
05 Cold Blooded
Singles
Год издания: 2010
Продолжительность: 00:07:02
Треклист:
01 Make Me Wanna Die
02 Zombie
Год издания: 2012
Продолжительность: 00:03:47
Треклист:
01 Kill Me
Год издания: 2013
Продолжительность: 00:03:48
Треклист:
01 Going To Hell
Год издания: 2013
Продолжительность: 00:03:44
Треклист:
01 Heaven Knows
Год издания: 2014
Продолжительность: 00:08:31
Треклист:
01 F****d Up World
02 Messed Up World (F’d Up World)
Год издания: 2014
Продолжительность: 00:04:45
Треклист:
01 House on a Hill
Год издания: 2016
Продолжительность: 00:04:13
Треклист:
01 Take Me Down
The Pretty Reckless — рок-группа из Нью-Йорка, возглавляемая актрисой и моделью Тейлор Момсен.